Sunday, May 9, 2021

DOWNLOAD LINKS ARE ONLY ON GUITARS101

CLICK ON TITLE OF THE POST TO RE-DIRECT TO REAL WEB SITE WHICH CONTAINS THE DOWNLOAD LINKS. FOR NOW I'D LIKE TO KEEP THEM ONLY ON GUITARS101

For everyone who has problems or doesn't know how to unpack z01, z02, files, follow this simple procedure: install the latest version of winzip or winrar, open only the zip files (ignore z01, z02 etc...), select the content and extract somewhere. That's all.

LOTS OF YOU AREN'T BE ABLE TO ACCESS ANYMORE TO GUITARS101. IF YOU ARE ONE OF THOSE PEOPLE, DROP ME A LINE ON FACEBOOK OR GMAIL AND I'LL SOLVE THE PROBLEM

this is why password changed on guitars101 recently

Monday, September 25, 2017

Pink Floyd - 1975-04-21 - San Diego, CA (SBD/FLAC) 24bit-96kHz/16bit-44kHz


(Soundboard FLAC)

Bootleg Title: California Soundboard

Label: SD75 A1/B1/C1

Source: Soundboard (mixing desk)

Lineage:
vinyl > Philips 903 stereo music centre > Sony PCM-M10 > WAV 24bit-96kHz > TLH > FLAC.

SIDE A
01 - Speak To Me
02 - Breathe
03 - On The Run
04 - Time
05 - Breathe (Reprise)
06 - The Great Gig In The Sky

SIDE B
01 - Money
02 - Us And Them
03 - Shine On You Crazy Diamond (6-9)

BONUS DISC SIDE C
01 - Echoes

Chris Isaak - 2010-07-02 - San Javier, ES (DVDfull pro-shot)

(DVDfull pro-shot)

XIII Festival International Jazz San Javier
San Javier, Murcia, Spain
Auditorio Parque Almansa
Broadcast by La 2 (TVE)
PRO SHOT, PAL, 16:9
Recorded with Topfield 5400
Authored with DVD Studio PRO
Artwork included
Aprox. time: 76 minutes

Data bit: 3,67 Mpbs
V’deo: MPEG-2, 720 x 576, 16:9
Audio: MP2 EstŽreo, 48 kHz, 192 kbps

01 - Speak of the devil
02 - Wicked game
03 - Go walking down there
04 - Best I ever had
05 - One day
06 - Big wide wonderful world
07 - Worked it out wrong
08 - We lost our way
09 - Take my heart
10 - Western stars (in spanish)
11 - I«ll go crazy
12 - You dont cry like I do
13 - Baby did a bad bad thing

Encore:
14 - Short Instrumental (only the band)
15 - Blue hotel
16 - San francisko days
17 - Oh, Pretty woman
18 - Blues stay away from me
19 - Blue spanish sky

Complete broadcast but incomplete show (probably the first seven song missed) and even maybe an extra encore if we compare with other tour shows.







Blondie - 2014-06-27 - Pilton, UK (DVDfull pro-shot)

(DVDfull pro-shot)

This is a PAL DVD ISO Image File
Video:-
Format : MPEG 2
File size : 3.6 GB
Bit rate : 9000 Kbps
Width : 720 pixels
Height : 576 pixels
Frame rate : 25.000 fps
Standard : PAL
Audio:-
Bit rate : 192 Kbps
Bit rate mode : CBR
Channel(s) : 2 channels
Sampling rate : 48 KHz
Resolution : 16 bits

01 - One Way Or Another
02 - Rave
03 - Hanging On The Telephone
04 - Mile High
05 - Call Me
06 - Maria
07 - Hollywood Babylon
08 - A Rose By Any Name
09 - Rapture
10 - (You Gotta) Fight for Your Right (To Party)
11 - Atomic
12 - Euphoria
13 - Heart Of Glass

Running Time:- 59 Minutes

Alright here's another brilliant live show from Blondie, this time at Glastonbury 2014. This is the full show and includes the Misfits cover Hollywood Babylon, its excellent quality both sound and picture and another great performance... Another excellent addition to everyones ever growing Punk Rock DVD library... Fully authored and ready to burn as usual enjoy, your friend Bandit999

Eric Clapton w/ Mark Knopfler - 1988-09-07 - Philadelphia, PA (SBD/FLAC)



(Soundboard FLAC)

Slowhand Masterfile Part 17

Spectrum

lineage
FM or SBD>?>CDR>EAC>FLAC

Disc 1
01 - Intro
02 - Crossroads
03 - White room
04 - I shot the sheriff
05 - Lay down Sally
06 - Wonderful tonight
07 - Tearing us apart
08 - After midnight
09 - Can't find my way home

Disc 2
01 - Motherless children
02 - Same old blues
03 - Cocaine
04 - Layla
05 - Money for nothing (Encore, Mark Knopfler vocals)
06 - Sunshine of your love (Encore)

Paul Mccartney - 2012-04-15 - Montevideo, Uruguay (DVDfull pro-shot)

(DVDfull pro-shot)

Estadio Centenario [NTSC DVD]

Quality: A/ TRT:65 min.
SOURCE: MASTER Satelitte from record02.ts file
MPEG Video
720 x 480 pixels
29.970 fps
NTSC

DUAL AUDIO: Stereo & 5.1

01 - Back in the U.S.S.R. (The Beatles song)
02 - I've Got a Feeling (The Beatles song)
03 - A Day in the Life (The Beatles song) (Give Peace a Chance snippet)
04 - Let It Be (The Beatles song)
05 - Live and Let Die (Wings song)
06 - Hey Jude (The Beatles song)

Encore:
07 - Lady Madonna (The Beatles song)
08 - Day Tripper (The Beatles song)
09 - Get Back (The Beatles song)

Encore 2:
10 - Yesterday (The Beatles song)
11 - Helter Skelter (The Beatles song)
12 - Golden Slumbers (The Beatles song)
13 - Carry That Weight (The Beatles song)
14 - The End

Pearl Jam - 2009-10-03 - Austin City, TX (DVDFull pro-shot)

(DVDfull pro-shot)

Lineage:

HD Broadcast>SD Standalone DVD XP.

Chapters every 5 minutes.


Austin City Limits

Performance Date October 3, 2009
Broadcast Date November 21, 2009

Guest appearance by Ben Harper.


01. Just Breathe
02. The End
03. The Fixer
04. Johnny Guitar
05. Amongst The Waves
06. Unthought Known
07. Army Reserve
08. Do the Evolution
09. Lukin
10. Red Mosquito (w/ Ben Harper)
11. Inside Job
12. Porch
13. Interview


 

 

Nina Hagen's - 1986 - Television Show (DVDfull pro-shot)

(DVDfull pro-shot)

Nina Hagen's TV-show Furstenhof Tanzpalast, Hamburg, Germany 1986. 

Title: 
Size: 3.40 Gb ( 3 562 554 KBytes ) - DVD-5 
Enabled regions: 1, 2, 3, 4, 5, 6, 7, 8 

VTS_01 : 
Play Length: 00:54:11 
Video: NTSC 4:3 (720x480) VBR 
Audio: 
Not specified (Dolby AC3, 2 ch) 

VTS_02 : 
Play Length: 00:00:04 
Video: NTSC 4:3 (352x480) VBR 

Menu Video: 
NTSC 4:3 (720x480) VBR 
Menu Audio: 
Not specified (Dolby AC3, 2 ch) 
Menu Subtitles: 
Not specified 
Menu Language Unit : 
Root Menu 

Audio #1: AC3, 2/0ch, 224Kbps, Delay 0 mSec

01. Intro 
02. Habanera (Bizet/Halevy/Meilhac) 
03. Du Hast Den Farbfilm Vergessen (Heubach/Demmler) 
04. Russian Reggae (Rucker/Hagen/Dosco) 
05. Heiss (Hagen/Potschka/Praeker/Heil) 
06. New York, New York (Hagen/Schief/Rucker) 
07. Hermann Hiess Er (Praeker/Hagen) 
08. Gesprach Mit Herman Brood (unknown) 
09. Rock'n'Roll Junkie (Herman Brood) 
10. Pop (Nina Hagen with Herman Brood) 
11. Wenn Ich Ein Junge War (Buchholz/Loose) 
12. Diana (Anka) 
13. Zarah (Jary/Batz) 
14. Wunderbar (Porter) 
15. Auf'm Bahnhof Zoo (Praeker/Heil/Hagen) 
16. We Are The World (Jackson/Richie) Nina Hagen Sung by german lyrics as 'Wir Sind Die Welt' 
TV ARD 1986 

Sunday, September 24, 2017

Pink Floyd - Reeling In Floyd DAT Sources, VOL 1-7 (VAR/FLAC) 7 DVD


(Various FLAC)

Pink Floyd - Reeling In Floyd DAT Sources, VOL 1 (VAR/FLAC)
Pink Floyd - Reeling In Floyd DAT Sources, VOL 2 (VAR/FLAC)
Pink Floyd - Reeling In Floyd DAT Sources, VOL 3 (VAR/FLAC)
Pink Floyd - Reeling In Floyd DAT Sources, VOL 4 (VAR/FLAC)
Pink Floyd - Reeling In Floyd DAT Sources, VOL 5 (VAR/FLAC)
Pink Floyd - Reeling In Floyd DAT Sources, VOL 6 (VAR/FLAC)
Pink Floyd - Reeling In Floyd DAT Sources, VOL 7 (VAR/FLAC)

Live Under The Sky from 1984 to 1992 (4xDVDfull pro-shot)

(DVDfull pro-shot)

[DVDfull] Live Under The Sky - 1984-1985 - Tokyo, JP (pro-shot)
[DVDfull] Live Under The Sky - 1986-1987 - Tokyo, JP (pro-shot)
[DVDfull] Live Under The Sky - 1988-1989 - Tokyo, JP (pro-shot)
[DVDfull] Live Under The Sky - 1992 - Tokyo, JP (pro-shot)





Metallica - 1986-09-26 - Stockholm, SWE (AUD/FLAC) by REQUEST


(Audience FLAC)

Lineage:
AUD > ? > Silver bootleg CD > Nero 10 > FLAC

Solnahallen Stockholm

Cliff's Last Show

01. Battery
02. Master of Puppets
03. For Whom the Bell Tolls
04. Welcome Home (Sanitarium)
05. Ride the Lightning
06. Bass Solo
07. Whiplash
08. The Thing That Should Not Be
09. Fade to Black (missing!)
10. Seek & Destroy
11. Creeping Death
12. The Four Horsemen
13. Guitar Solo
14. Am I Evil?
15. Damage, Inc.
16. Blitzkrieg

Jethro Tull - 1996-03-06 - Santiago, Chile.txt (DVDfull pro-shot)

(DVDfull pro-shot)

Shown on 'En Vivo En Creaciones', broadcasted on Chilean National TV.

01 - Intro
02 - Roots To Branches
03 - Rare And Precious Chain
04 - Thick As A Brick
05 - In The Grip Of Stronger Stuff
06 - Dangerous Veils,
07 - Aqualung,
08 - Nothing Is Easy
09 - Bourée
10 - In The Moneylender's Temple,
11 - My God
12 - Locomotive Breath

Notes:
Incomplete concert, as broadcasted on TV, from the second tour of the band that includes Chile.



Stray Cats - 1984-08-06 - Chicago, IL (FM/FLAC)


(FM broadcast FLAC)

LINAGE:
FM -> unknown gen Cass. -> Philips CDR775 CD Recorder -> CDR -> EAC: WAV -> TLH: FLAC 8 -> You

01.Rumble In Brighton 
02.Double Talkin' Baby 
03.Little Sister 
04.Time Is On My Hands 
05.Hey Tonight 
06.Something's Wrong With My Radio 
07.C'Mon Everybody 
08.Lookin' Out My Back Door 
09.Runaway Boys 
10.Stray Cat Strut 
11.Barbwire Fence 
12.Bobby's Back 
13.Rock This Town 
14.Rebels Rule 
15.Love Is All Around 
16.Something Else 

A nice FM recording. One of the very few times the song "Barbwire Fence" was played. It was never recorded until Brian's solo album " Knife Feels Like Justice " in 1986.

America - 2014-11-01 - Norfolk, CT (ts pro-shot)

(ts pro-shot)

America 
Infinity Music Hall 
Norfolk, CT 
November 1, 2014 
Broadcast on PBS-TV on January 17,2016 

Gerry Beckley - vocals, guitar, piano 
Dewey Bunnell - vocals, guitar 
Rich Campbell - bass, keyboards, vocals 
Bill Worrell - guitar, keyboards, vocals 
Ryland Steen - drums 

Contrast clause: 
The live webcast of this show was previously uploaded here by indykid: http://www.dimeadozen.org/torrents-details.php?id=547738 
This new torrent is in HDTV 1080i format. The setlist is the same. 

Video: 
MPEG-2 
8.9 Mbps 
1920x1080 
16:9 

Audio: 
AC-3 
384 Kbps 
48.0 KHz 
2 channels 

01 interview 
02 Tin Man 
03 You Can Do Magic 
04 Don’t Cross the River 
05 Daisy Jane 
06 Riverside 
07 Ventura Highway 
08 The Border 
09 Green Monkey 
10 I Need You 
11 Only in Your Heart 
12 Lonely People 
13 Sandman 
14 Sister Golden Hair 
15 A Horse with No Name 
16 closing credits - with California Dreamin’ 

Length: 55:36 

Single logo in the right lower screen. See screen cap in Comments section below. 

Sting - 1990-10-13 - Santiago, CL (SBD/FLAC)

(Soundboard FLAC)

"Un Abrazo a la Esperanza"

Sting (featuring Peter Gabriel)
Liberated Boot from CD Silver

Lineage: 
Soundboard -> CD Silver -> EAC -> FLAC Frontend Level 8 -> Trader's Little Helper

Sting: Bass, Vocals
Vinnie Colaiuta: Drums
Kenny Kirkland (RIP): Keys
Dominic Miller: Guitars

Disc 1
01 Message In A Bottle
02 Driven To Tears
03 King Of Pain
04 Children's Crusade
05 Spirits In The Material World
06 If You Love Somebody, Set Them Free
07 Don't Give Up (Featuring Peter Gabriel)
08 Biko (Featuring Peter Gabriel)
09 Bring On The Night->When The World Is Running Down
10 Little Wing (Mariposa Libre)

Disc 2
01 Tea In The Sahara / Walking On The Moon
02 Every Breath You Take
03 Fragile
04 Roxanne / Get Up Stand Up
05 They Dance Alone (Ellas Danzan Solas - Cueca Sola)

Paris May 1985 (Soundboard)
06 Shadows In The Rain*
07 Fortress Around Your Heart*
08 We Work The Black Seam*
09 I Burn For You*

Chic Feat. Nile Rodgers - 2017-09-17 - Rio de Janeiro, BR (ts pro-shot) 6.04 GB


(ts pro-shot)

HDTV
1080i
TS
H.264
AC3
MPEG4 Video (H264) 1920x1080 29.97fps 12.5 Mb/s
Dolby AC3 48000Hz 6ch 384kbps

General
ID : 1 (0x1)
Complete name : H:\Rock in Rio 2017\Chic Feat. Nile Rodgers - Rock in Rio 2017.ts
Format : MPEG-TS
File size : 6.04 GiB
Duration : 1 h 3 min
Overall bit rate mode : Variable
Overall bit rate : 13.6 Mb/s

Video
ID : 1328 (0x530)
Menu ID : 1336 (0x538)
Format : AVC
Format/Info : Advanced Video Codec
Format profile : High@L4
Format settings, CABAC : Yes
Format settings, RefFrames : 4 frames
Codec ID : 27
Duration : 1 h 3 min
Bit rate : 12.5 Mb/s
Width : 1 920 pixels
Height : 1 080 pixels
Display aspect ratio : 16:9
Frame rate : 29.970 (30000/1001) FPS
Color space : YUV
Chroma subsampling : 4:2:0
Bit depth : 8 bits
Scan type : MBAFF
Scan type, store method : Interleaved fields
Scan order : Top Field First
Bits/(Pixel*Frame) : 0.201
Stream size : 5.57 GiB (92%)

Audio
ID : 1329 (0x531)
Menu ID : 1336 (0x538)
Format : AC-3
Format/Info : Audio Coding 3
Format settings, Endianness : Big
Codec ID : 129
Duration : 1 h 3 min
Bit rate mode : Constant
Bit rate : 384 kb/s
Channel(s) : 6 channels
Channel positions : Front: L C R, Side: L R, LFE
Sampling rate : 48.0 kHz
Frame rate : 31.250 FPS (1536 SPF)
Bit depth : 16 bits
Compression mode : Lossy
Stream size : 175 MiB (3%)
Language : English
Service kind : Complete Main

01 - Everybody Dance (Chic cover)
02 - Dance, Dance, Dance (Yowsah, Yowsah, Yowsah)(Chic cover)
03 - I Want Your Love (Chic cover)
04 - I'm Coming Out / Upside Down (Diana Ross cover)
05 - He's the Greatest Dancer / We Are Family (Sister Sledge cover)
06 - Like a Virgin (Madonna cover)
07 - Get Lucky (Daft Punk cover)
08 - Let's Dance (David Bowie cover)
09 - Le Freak (Chic cover)
10 - Good Times (Chic cover)

01:03:43

Pet Shop Boys - 2017-09-15 - Rio de Janeiro, BR (ts pro-shot) 5.42 GB


(ts pro-shot)

September 15, 2017
HDTV
1080i
TS
H.264
AC3
MPEG4 Video (H264) 1920x1080 29.97fps 14,1 Mb/s
1: Dolby AC3 48000Hz 6ch 640kbps
2: AAC(LATM) 48000Hz stereo

General
ID : 1 (0x1)
Complete name : H:\Pet Shop Boys - Rock in Rio 2017.ts
Format : MPEG-TS
File size : 5.42 GiB
Duration : 48 min 23 s
Overall bit rate mode : Variable
Overall bit rate : 16.0 Mb/s

Video
ID : 273 (0x111)
Menu ID : 504 (0x1F8)
Format : AVC
Format/Info : Advanced Video Codec
Format profile : High@L4
Format settings, CABAC : Yes
Format settings, RefFrames : 2 frames
Format settings, GOP : M=3, N=15
Codec ID : 27
Duration : 48 min 24 s
Bit rate mode : Variable
Maximum bit rate : 24.0 Mb/s
Width : 1 920 pixels
Height : 1 080 pixels
Display aspect ratio : 16:9
Frame rate : 29.970 (30000/1001) FPS
Color space : YUV
Chroma subsampling : 4:2:0
Bit depth : 8 bits
Scan type : Interlaced
Scan type, store method : Separated fields
Scan order : Top Field First
Color range : Limited
Color primaries : BT.709
Transfer characteristics : BT.709
Matrix coefficients : BT.709

Audio #1
ID : 274 (0x112)
Menu ID : 504 (0x1F8)
Format : AAC
Format/Info : Advanced Audio Codec
Format profile : HE-AAC / LC
Muxing mode : LATM
Codec ID : 17
Duration : 48 min 24 s
Bit rate mode : Variable
Channel(s) : 2 channels
Channel positions : Front: L R
Sampling rate : 48.0 kHz / 24.0 kHz
Frame rate : 23.438 FPS (1024 SPF)
Compression mode : Lossy
Language : Portuguese

Audio #2
ID : 275 (0x113)
Menu ID : 504 (0x1F8)
Format : AC-3
Format/Info : Audio Coding 3
Format settings, Endianness : Big
Codec ID : 6
Duration : 48 min 24 s
Bit rate mode : Constant
Bit rate : 640 kb/s
Channel(s) : 6 channels
Channel positions : Front: L C R, Side: L R, LFE
Sampling rate : 48.0 kHz
Frame rate : 31.250 FPS (1536 SPF)
Bit depth : 16 bits
Compression mode : Lossy
Stream size : 222 MiB (4%)
Language : English
Service kind : Complete Main

Audio #3
ID : 276 (0x114)
Menu ID : 504 (0x1F8)
Format : AAC
Format/Info : Advanced Audio Codec
Format profile : HE-AAC / LC
Muxing mode : LATM
Codec ID : 17
Duration : 48 min 24 s
Bit rate mode : Variable
Channel(s) : 2 channels
Channel positions : Front: L R
Sampling rate : 48.0 kHz / 24.0 kHz
Frame rate : 23.438 FPS (1024 SPF)
Compression mode : Lossy
Language : des

Audio #4
ID : 277 (0x115)
Menu ID : 504 (0x1F8)
Format : AC-3
Format/Info : Audio Coding 3
Format settings, Endianness : Big
Codec ID : 6
Duration : 48 min 24 s
Bit rate mode : Constant
Bit rate : 640 kb/s
Channel(s) : 6 channels
Channel positions : Front: L C R, Side: L R, LFE
Sampling rate : 48.0 kHz
Frame rate : 31.250 FPS (1536 SPF)
Bit depth : 16 bits
Compression mode : Lossy
Stream size : 222 MiB (4%)
Language : 5.1
Service kind : Complete Main

01 - Inner Sanctum
02 - Opportunities (Let's Make Lots of Money)
03 - Burn
04 - Se A Vida E (That's The Way Life Is)
05 - West End Girls
06 - Home and Dry
07 - The Enigma
08 - Vocal
09 - The Sodom and Gomorrah Show
10 - It's a Sin
11 - Left to My Own Devices
12 - Go West (Village People cover)

00:48:24



Tears for Fears - 2017-09-22 - Rio de Janeiro, BR (ts pro-shot) 5.78 GB


(ts pro-shot)

HDTV
1080i
TS
H.264
AC3
MPEG4 Video (H264) 1920x1080 29.97fps 10.8 Mb/s
Dolby AC3 48000Hz 6ch 384kbps

General
ID : 1 (0x1)
Complete name : H:\Rock in Rio 2017\Tears for Fears - Rock in Rio 2017.ts
Format : MPEG-TS
File size : 5.78 GiB
Duration : 1 h 10 min
Overall bit rate mode : Variable
Overall bit rate : 11.7 Mb/s

Video
ID : 1328 (0x530)
Menu ID : 1336 (0x538)
Format : AVC
Format/Info : Advanced Video Codec
Format profile : High@L4
Format settings, CABAC : Yes
Format settings, RefFrames : 4 frames
Codec ID : 27
Duration : 1 h 10 min
Bit rate : 10.8 Mb/s
Width : 1 920 pixels
Height : 1 080 pixels
Display aspect ratio : 16:9
Frame rate : 29.970 (30000/1001) FPS
Color space : YUV
Chroma subsampling : 4:2:0
Bit depth : 8 bits
Scan type : MBAFF
Scan type, store method : Interleaved fields
Scan order : Top Field First
Bits/(Pixel*Frame) : 0.173
Stream size : 5.30 GiB (92%)

Audio
ID : 1329 (0x531)
Menu ID : 1336 (0x538)
Format : AC-3
Format/Info : Audio Coding 3
Format settings, Endianness : Big
Codec ID : 129
Duration : 1 h 10 min
Bit rate mode : Constant
Bit rate : 384 kb/s
Channel(s) : 6 channels
Channel positions : Front: L C R, Side: L R, LFE
Sampling rate : 48.0 kHz
Frame rate : 31.250 FPS (1536 SPF)
Bit depth : 16 bits
Compression mode : Lossy
Stream size : 194 MiB (3%)
Language : English
Service kind : Complete Main

01 - Everybody Wants to Rule the World (Lorde version)
02 - Everybody Wants to Rule the World
03 - Secret World
04 - Sowing the Seeds of Love
05 - Advice for the Young at Heart
06 - Everybody Loves a Happy Ending
07 - Change
08 - Mad World
09 - Memories Fade
10 - Creep (Radiohead cover)
11 - Pale Shelter
12 - Break It Down Again
13 - Head Over Heels

Encore:
14 - Shout

01:10:31



Def Leppad - 2017-09-21 - Rio De Janeiro, BR (ts pro-shot) 7.38 GB


(ts pro-shot)

HDTV
1080i
TS
H.264
AC3
MPEG4 Video (H264) 1920x1080 29.97fps 12.2 Mb/s
Dolby AC3 48000Hz 6ch 384kbps

General
ID : 1 (0x1)
Complete name : H:\Rock in Rio 2017\Def Leppard - Rock in Rio 2017.ts
Format : MPEG-TS
File size : 7.38 GiB
Duration : 1 h 19 min
Overall bit rate mode : Variable
Overall bit rate : 13.3 Mb/s

Video
ID : 1328 (0x530)
Menu ID : 1336 (0x538)
Format : AVC
Format/Info : Advanced Video Codec
Format profile : High@L4
Format settings, CABAC : Yes
Format settings, RefFrames : 4 frames
Codec ID : 27
Duration : 1 h 19 min
Bit rate : 12.2 Mb/s
Width : 1 920 pixels
Height : 1 080 pixels
Display aspect ratio : 16:9
Frame rate : 29.970 (30000/1001) FPS
Color space : YUV
Chroma subsampling : 4:2:0
Bit depth : 8 bits
Scan type : MBAFF
Scan type, store method : Interleaved fields
Scan order : Top Field First
Bits/(Pixel*Frame) : 0.197
Stream size : 6.80 GiB (92%)

Audio
ID : 1329 (0x531)
Menu ID : 1336 (0x538)
Format : AC-3
Format/Info : Audio Coding 3
Format settings, Endianness : Big
Codec ID : 129
Duration : 1 h 19 min
Bit rate mode : Constant
Bit rate : 384 kb/s
Channel(s) : 6 channels
Channel positions : Front: L C R, Side: L R, LFE
Sampling rate : 48.0 kHz
Frame rate : 31.250 FPS (1536 SPF)
Bit depth : 16 bits
Compression mode : Lossy
Stream size : 219 MiB (3%)
Language : English
Service kind : Complete Main

01 - Let's Go
02 - Animal
03 - Let It Go
04 - Love Bites
05 - Armageddon It
06 - Man Enough
07 - Rocket
08 - Bringin' on the Heartbreak
09 - Switch 625
10 - Hysteria (followed by "Heroes" snippet by David Bowie)
11 - Let's Get Rocked
12 - Pour Some Sugar On Me
13 - Rock of Ages
14 - Photograph

+ Interview

01:19:37



Bon Jovi - 2017-09-22 - Rio de Janeiro, BR (ts pro-shot) 12.2 GB

(ts pro-shot)

HDTV
1080i
TS
H.264
AC3
MPEG4 Video (H264) 1920x1080 29.97fps 12.9 Mb/s
Dolby AC3 48000Hz 6ch 384kbps

General
ID : 1 (0x1)
Complete name : H:\Rock in Rio 2017\Bon Jovi - Rock in Rio 2017.ts
Format : MPEG-TS
File size : 12.2 GiB
Duration : 2 h 5 min
Overall bit rate mode : Variable
Overall bit rate : 14.0 Mb/s

Video
ID : 1328 (0x530)
Menu ID : 1336 (0x538)
Format : AVC
Format/Info : Advanced Video Codec
Format profile : High@L4
Format settings, CABAC : Yes
Format settings, RefFrames : 4 frames
Format settings, GOP : M=4, N=32
Codec ID : 27
Duration : 2 h 5 min
Bit rate : 12.9 Mb/s
Width : 1 920 pixels
Height : 1 080 pixels
Display aspect ratio : 16:9
Frame rate : 29.970 (30000/1001) FPS
Color space : YUV
Chroma subsampling : 4:2:0
Bit depth : 8 bits
Scan type : MBAFF
Scan type, store method : Interleaved fields
Scan order : Top Field First
Bits/(Pixel*Frame) : 0.207
Stream size : 11.3 GiB (92%)

Audio
ID : 1329 (0x531)
Menu ID : 1336 (0x538)
Format : AC-3
Format/Info : Audio Coding 3
Format settings, Endianness : Big
Codec ID : 129
Duration : 2 h 5 min
Bit rate mode : Constant
Bit rate : 384 kb/s
Channel(s) : 6 channels
Channel positions : Front: L C R, Side: L R, LFE
Sampling rate : 48.0 kHz
Frame rate : 31.250 FPS (1536 SPF)
Bit depth : 16 bits
Compression mode : Lossy
Stream size : 344 MiB (3%)
Language : English
Service kind : Complete Main

01  -  This House Is Not for Sale
02  -  Raise Your Hands
03  -  Knockout
04  -  You Give Love a Bad Name
05  -  Born to Be My Baby
06  -  Lost Highway
07  -  Because We Can
08  -  I'll Sleep When I'm Dead
09  -  Runaway
10  -  We Got It Goin' On
11  -  Someday I'll Be Saturday Night (Acoustic)
12  -  Bed of Roses
13  -  It's My Life
14  -  Captain Crash & the Beauty Queen From Mars
15  -  Roller Coaster
16  -  Wanted Dead or Alive
17  -  Lay Your Hands On Me
18  -  Keep the Faith
19  -  Bad Medicine

Encore:
20  -  Have a Nice Day
21  -  Livin' on a Prayer

02:05:15



Alice Cooper - 2017-09-21 - Rio de Janeiro, BR (ts pro-shot) 5.65 GB


(ts pro-shot)

HDTV
1080i
TS
H.264
AC3
MPEG4 Video (H264) 1920x1080 29.97fps 12.4 Mb/s
Dolby AC3 48000Hz 6ch 384kbps

01 - Spend the Night intro
02 - Brutal Planet
03 - No More Mr. Nice Guy
04 - Under My Wheels
05 - Guitar Solo (Nita Strauss)
06 - Poison
07 - Halo of Flies (with drum solo)
08 - Feed My Frankenstein
09 - Cold Ethyl
10 - Only Women Bleed
11 - Killer (partial)
12 - I Love the Dead (band vocals only)
13 - Fire (with The Crazy World of Arthur Brown)
14 - School's Out (with 'Another Brick in the Wall Part 2' by Pink Floyd snippet)

01:00:02

Aerosmith - 2017-09-21 - Rock in Rio de Janeiro, BR (ts pro-shot) 9.79 GB


(ts pro-shot)

HDTV
1080i
TS
H.264
AC3
MPEG4 Video (H264) 1920x1080 29.97fps 12.3 Mb/s
Dolby AC3 48000Hz 6ch 384kbps

General
ID : 1 (0x1)
Complete name : H:\Rock in Rio 2017\Aerosmith - Rock in Rio 2017.ts
Format : MPEG-TS
File size : 9.79 GiB
Duration : 1 h 45 min
Overall bit rate mode : Variable
Overall bit rate : 13.3 Mb/s

Video
ID : 1328 (0x530)
Menu ID : 1336 (0x538)
Format : AVC
Format/Info : Advanced Video Codec
Format profile : High@L4
Format settings, CABAC : Yes
Format settings, RefFrames : 4 frames
Codec ID : 27
Duration : 1 h 45 min
Bit rate : 12.3 Mb/s
Width : 1 920 pixels
Height : 1 080 pixels
Display aspect ratio : 16:9
Frame rate : 29.970 (30000/1001) FPS
Color space : YUV
Chroma subsampling : 4:2:0
Bit depth : 8 bits
Scan type : MBAFF
Scan type, store method : Interleaved fields
Scan order : Top Field First
Bits/(Pixel*Frame) : 0.197
Stream size : 9.03 GiB (92%)

Audio
ID : 1329 (0x531)
Menu ID : 1336 (0x538)
Format : AC-3
Format/Info : Audio Coding 3
Format settings, Endianness : Big
Codec ID : 129
Duration : 1 h 45 min
Bit rate mode : Constant
Bit rate : 384 kb/s
Channel(s) : 6 channels
Channel positions : Front: L C R, Side: L R, LFE
Sampling rate : 48.0 kHz
Frame rate : 31.250 FPS (1536 SPF)
Bit depth : 16 bits
Compression mode : Lossy
Stream size : 290 MiB (3%)
Language : English
Service kind : Complete Main

01 - O Fortuna (Carl Orff song)
02 - Let the Music Do the Talking
03 - Love in an Elevator
04 - Cryin'
05 - Livin' on the Edge (with "Within You Without You" snippet by The Beatles)
06 - Rag Doll
07 - Falling in Love (Is Hard on the Knees)
08 - Stop Messin' Around (Fleetwood Mac cover)
09 - Oh Well (Fleetwood Mac cover)
10 - Crazy
11 - I Don't Want to Miss a Thing
12 - Eat the Rich
13 - Come Together (The Beatles cover)
14 - Sweet Emotion
15 - Dude (Looks Like a Lady)

Encore:
16 - Dream On
17 - Mother Popcorn (James Brown cover)
18 - Walk This Way

01:45:28